» » Henry Saiz - Balance Presents Natura Sonoris

Henry Saiz - Balance Presents Natura Sonoris mp3 album

Henry Saiz - Balance Presents Natura Sonoris mp3 album
Size MP3 album: 1412 mb

Tracklist Hide Credits

1 Henry Saiz Lone Wolf (A Reality Medley) 10:50
2 Hal Incandenza Contacto 9:05
3 Bufi Bird Song 6:57
4 R.I.P. Bestia African Wedding Ceremony (JMII's Sagrada Familia Remix)
Remix – JMII
5:29
5 Landikhan Veneno Mortal (R.I.P. BESTIA Acid Antidote JP 8080)
Remix – R.I.P. Bestia
7:47
6 A Friend Of Marcus She Who Annihilates (Henry Saiz Our Discovery Version)
Remix – Henry Saiz
8:51
7 Damabiah Sur Les Genoux De L'automne (Henry Saiz Remix)
Remix – Henry Saiz
9:14
8 Joep Mencke Sonder 9:58
9 Tentacle Goliath (Brassica Remix)
Remix – Brassica
7:09
10 Henry Saiz Secrets (Tuff City Kids Remix)
Remix – Tuff City Kids
6:50
11 Marc Marzenit The Walrus 7:06
12 Victoria Rodriguez Moon On A Bright Day 9:13
13 Brian Cid Luminous Black 8:01
14 Henry Saiz & Tentacle The Prophetess 6:45
15 Henry Saiz The Light (bRUNA Remix 2017 Master)
Remix – bRUNA
8:22
16 Sistema Entre (Henry Saiz Remix)
Remix – Henry Saiz
5:53
17 Henry Saiz Rave Flute (Balance Version) 5:28
18 Henry Saiz & Petar Dundov Infinite Promises 9:57
19 NVSBL Woodhouse (Henry Saiz Balance Version)
Remix – Henry Saiz
7:45
20 Henry Saiz Death Drive (Eduardo de la Calle Remix)
Remix – Eduardo De La Calle
6:31
21 Henry Saiz Pendulum (Henry Saiz Balance Version)
Remix – Henry Saiz
13:44
22 Henry Saiz Feat. Cora Novoa Golden Dawn (Brynjolfur Dream Mix)
Remix – Brynjolfur
9:01
23 Henry Saiz September 8:36
24 Henry Saiz Spiricom (See You Soon) (Hal Incandenza Remix)
Remix – Hal Incandenza
5:26
25 Various Balance Presents Natura Sonoris (Continuous Mix)
DJ Mix – Henry Saiz
2:23:28

Notes

BPM, Key:
1: 106 BPM, G# minor
2: 106 BPM, G# minor
3: 119 BPM, G# minor
4: 122 BPM, G# minor
5: 117 BPM, C# minor
6: 120 BPM, C# minor
7: 122 BPM, E major
8: 122 BPM, A minor
9: 120 BPM, E major
10: 120 BPM, None
11: 122 BPM, B minor
12: 124 BPM, B minor
13: 121 BPM, B minor
14: 117 BPM, B minor
15: 117 BPM, A# minor
16: 120 BPM, F# major
17: 120 BPM, A major
18: 120 BPM, C# minor
19: 120 BPM, C# minor
20: 126 BPM, E major
21: 120 BPM, A major
22: 120 BPM, A major
23: 121 BPM, C major
24: 112 BPM, F minor

Other versions

Category Artist Title (Format) Label Category Country Year
BAL021CD Henry Saiz Balance Presents Natura Sonoris ‎(2xCD, Mixed, Dig) Balance Music BAL021CD Australia 2017



Comments: (3)
Shakataxe
This mix is nothing short of spectacular. Henry Saiz's unquestionable masterpiece. A 2.5 hour continuous journey through the most beautiful and emotive sounds that I've heard in more than a decade.
Zetadda
I have created a cue sheet for the long, mixed audio file. To make this work for you, simply replace the name of the file inside the quotation marks after the line labelled FILE on row 9 with the name of your copy of the audio file.TITLE "Balance Presents Natura Sonoris"PERFORMER "Henry Saiz"REM GENRE "Electronic"REM DATE "2017"REM DISCNUMBER 1REM TOTALDISCS 1REM DISCID C521A318REM COMPILATION TRUEFILE "01 Balance Presents Natura Sonoris.flac" WAVE TRACK 01 AUDIO TITLE "Lone Wolf (A Reality Medley)" PERFORMER "Henry Saiz" SONGWRITER "Henry Saiz" INDEX 01 00:00:00 TRACK 02 AUDIO TITLE "Contacto" PERFORMER "Hal Incandenza" SONGWRITER "Henry Saiz" INDEX 01 09:21:69 TRACK 03 AUDIO TITLE "Bird Song" PERFORMER "Bufi" SONGWRITER "Henry Saiz" INDEX 01 16:33:56 TRACK 04 AUDIO TITLE "African Wedding Ceremony (JMII’s Sagrada Familia remix)" PERFORMER "R.I.P. Bestia" SONGWRITER "Henry Saiz" INDEX 01 21:12:20 TRACK 05 AUDIO TITLE "Veneno Mortal (R.I.P. Bestia Acid Antidote JP 8080)" PERFORMER "Landikhan" SONGWRITER "Henry Saiz" INDEX 01 23:53:50 TRACK 06 AUDIO TITLE "She Who Annihilates + samples from Henry Saiz | Our Discovery" PERFORMER "A Friend of Marcus" SONGWRITER "Henry Saiz" INDEX 01 29:36:13 TRACK 07 AUDIO TITLE "Sur les genoux de l’automne (Henry Saiz remix)" PERFORMER "Damabiah" SONGWRITER "Henry Saiz" INDEX 01 36:16:34 TRACK 08 AUDIO TITLE "Sonder" PERFORMER "Joep Mencke" SONGWRITER "Henry Saiz" INDEX 01 43:55:07 TRACK 09 AUDIO TITLE "Goliath (Brassica remix)" PERFORMER "Tentacle" SONGWRITER "Henry Saiz" INDEX 01 50:30:58 TRACK 10 AUDIO TITLE "Secrets (Tuff City Kids remix) + (Brassica remix)" PERFORMER "Henry Saiz" SONGWRITER "Henry Saiz" INDEX 01 57:10:16 TRACK 11 AUDIO TITLE "The Walrus + samples from Henry Saiz | The Nothing" PERFORMER "Marc Marzenit" SONGWRITER "Henry Saiz" INDEX 01 62:28:58 TRACK 12 AUDIO TITLE "Moon on a Bright Day" PERFORMER "Victoria Rodriguez" SONGWRITER "Henry Saiz" INDEX 01 65:55:01 TRACK 13 AUDIO TITLE "Luminous Black + samples from Hal Incandenza | Ventura" PERFORMER "Brian Cid" SONGWRITER "Henry Saiz" INDEX 01 69:37:09 TRACK 14 AUDIO TITLE "The Prophetess" PERFORMER "Henry Saiz & Tentacle" SONGWRITER "Henry Saiz" INDEX 01 74:41:41 TRACK 15 AUDIO TITLE "The Prophetess" PERFORMER "Henry Saiz & Tentacle" SONGWRITER "Henry Saiz" INDEX 01 77:42:64 TRACK 16 AUDIO TITLE "The Light (bRUNA remix)" PERFORMER "Henry Saiz" SONGWRITER "Henry Saiz" INDEX 01 79:29:66 TRACK 17 AUDIO TITLE "Entreé (Henry Saiz remix)" PERFORMER "Sistema" SONGWRITER "Henry Saiz" INDEX 01 87:21:37 TRACK 18 AUDIO TITLE "Rave Flute + samples from Henry Saiz | Moonlight Wolf" PERFORMER "Henry Saiz" SONGWRITER "Henry Saiz" INDEX 01 93:07:32 TRACK 19 AUDIO TITLE "Infinite Promises + samples from Henry Saiz | Sleepwalk" PERFORMER "Petar Dundov & Henry Saiz" SONGWRITER "Henry Saiz" INDEX 01 97:46:18 TRACK 20 AUDIO TITLE "Woodhouse (Henry Saiz remix)" PERFORMER "NVSBL" SONGWRITER "Henry Saiz" INDEX 01 104:57:12 TRACK 21 AUDIO TITLE "Death Drive (Eduardo de la Calle remix) + The Pendulum + melody from Voltaeric | Sandman" PERFORMER "Henry Saiz" SONGWRITER "Henry Saiz" INDEX 01 111:36:50 TRACK 22 AUDIO TITLE "Golden Dawn (Brynjolfur Dream mix)" PERFORMER "Henry Saiz & Cora Novoa" SONGWRITER "Henry Saiz" INDEX 01 122:21:37 TRACK 23 AUDIO TITLE "September + samples from Marc Marzenit | Track for the End" PERFORMER "Henry Saiz" SONGWRITER "Henry Saiz" INDEX 01 130:57:50 TRACK 24 AUDIO TITLE "Spiricom (See You Soon) (Hal Incandenza remix)" PERFORMER "Henry Saiz" SONGWRITER "Henry Saiz" INDEX 01 138:00:42
Marilore
Like the Sudbest release, this is all music from one label that being Henry Saiz, and like Hernan's comp this one is really good. I've had a chance to listen to the almost 2 and a half hour mix and I really enjoyed it a lot. I've always been a fan of Mr. Saiz and his label is putting out some quality music. This album like the previous Presents album is all new unreleased music and it's "fire" as the kids say. I didn't hear anything that wasn't good, the whole mix was great and the flow was perfect. Like Henry's Balance 019 mix this one is every bit as good if not better. I can't wait to see what's next for Henry and his label and the Balance Presents series.
Henry Saiz - Balance Presents Natura Sonoris mp3 album
Downtempo, Deep House, Progressive House
Musician: Henry Saiz
Title: Balance Presents Natura Sonoris
Category: Electronic
Country: Australia
Released: 2017
Rating: 4.7/5
Votes: 232
Other Formats: AUD DMF MP3 AIFF AU WMA MMF